+ ShareSpark.net »  :::: Bollywood Zone » Bollywood Movies (Original Rips)
|- The House Next Door (2017) 720p HD x264 WEBRip DD5.1 Team Jio Exclusive [With Archive Link]


The House Next Door (2017) 720p HD x264 WEBRip DD5.1 Team Jio Exclusive [With Archive Link]

0 Members and 1 Guest are viewing this topic.

January 10, 2018, 12:50:17 AM
  • Global Moderator
  • Legend Member
  • *****
  • Topic Author
  • Thank You: 4658
  • Reputation: 921
  • Activity:
    100%
  • Country: in
  • Posts: 3655
  • Topics: 3071
  • Join Date: Jan 2014
  • ıllıllı ѕмoĸιng ιѕ good ғor нealтн ıllıllı :)
The House Next Door (2017) 720p HD x264 WEBRip DD5.1 Team Jio Exclusive



:info:

Quote
Format : Matroska
Format version : Version 4 / Version 2
File size : 1.35 GiB
Duration : 2 h 14 min
Overall bit rate : 1 434 kb/s
Video
ID : 1
Format : AVC
Format/Info : Advanced Video Codec
Format profile : [email protected]
Format settings : CABAC / 4 Ref Frames
Format settings, CABAC : Yes
Format settings, ReFrames : 4 frames
Codec ID : V_MPEG4/ISO/AVC
Duration : 2 h 14 min
Bit rate : 1 213 kb/s
Width : 1 280 pixels
Height : 444 pixels
Display aspect ratio : 2.40:1
Original display aspect rat : 2.40:1
Frame rate mode : Constant
Frame rate : 24.000 FPS
Color space : YUV
Chroma subsampling : 4:2:0
Bit depth : 8 bits
Scan type : Progressive
Bits/(Pixel*Frame) : 0.089
Stream size : 1.14 GiB (85%)
Writing library : x264 core 148 r2708 86b7198
Audio
ID : 2
Format : E-AC-3
Format/Info : Enhanced Audio Coding 3
Codec ID : A_EAC3
Duration : 2 h 14 min
Bit rate mode : Constant
Bit rate : 192 kb/s
Channel(s) : 6 channels
Channel positions : Front: L C R, Side: L R, LFE
Sampling rate : 48.0 kHz
Frame rate : 187.500 FPS (256 SPF)
Compression mode : Lossy
Stream size : 185 MiB (13%)
Title : Surround
Service kind : Complete Main
Default : Yes
Forced : No







:download:

Quote













File Leeched & Uploaded From




Don't walk as you are king, walk as you don't care who the king is....!!
Never argue with an idiot. They drag you down to their level and then beat you with experience?

Share this topic on FacebookShare this topic on GoogleShare this topic on MySpaceShare this topic on TwitterShare this topic on Yahoo

« Last Edit: January 10, 2018, 02:29:49 AM by Rάήνίјάч1234 »



Don't walk as you are king, walk as you don't care who the king is....!!

Thanks given by:


January 10, 2018, 09:56:52 PM
Reply #1
  • Royal Member
  • ****
  • Thank You: 158
  • Reputation: 66
  • Activity:
    20%
  • Country: sa
  • Posts: 971
  • Topics: 95
  • Join Date: Jan 2017
  • ShareSpark Member

Tags:
 

Related Topics





Back to top