+ ShareSpark.net »  :::: Hollywood Zone » Hollywood Movies (Original Rips)
|- Jigsaw.2017.720p.WEB-DL.6CH.AAC.LLG with SAMPLE


Jigsaw.2017.720p.WEB-DL.6CH.AAC.LLG with SAMPLE

0 Members and 1 Guest are viewing this topic.

January 11, 2018, 08:41:58 PM
  • Busy Upto March 15.
  • Team SSX
  • Elite Member
  • ***
  • Topic Author
  • Thank You: 75
  • Reputation: 2
  • Activity:
    100%
  • Country: us
  • Posts: 428
  • Topics: 276
  • Join Date: May 2017
  • #Me


 :plot:

**************************************************************

Complete name                            : Jigsaw.2017.720p.WEB-DL.6CH.AAC.LLG.mp4
Format                                   : MPEG-4
Format profile                           : Base Media
Codec ID                                 : isom (isom/iso2/avc1/mp41)
File size                                : 1.00 GiB
Duration                                 : 1 h 32 min
Overall bit rate                         : 1 553 kb/s
Writing application                      : Lavf57.56.101

Video
ID                                       : 1
Format                                   : AVC
Format/Info                              : Advanced Video Codec
Format profile                           : [email protected]
Format settings                          : CABAC / 4 Ref Frames
Format settings, CABAC                   : Yes
Format settings, RefFrames               : 4 frames
Codec ID                                 : avc1
Codec ID/Info                            : Advanced Video Coding
Duration                                 : 1 h 32 min
Bit rate                                 : 1 500 kb/s
Width                                    : 1 280 pixels
Height                                   : 536 pixels
Display aspect ratio                     : 2.40:1
Frame rate mode                          : Constant
Frame rate                               : 23.976 (23976/1000) FPS
Color space                              : YUV
Chroma subsampling                       : 4:2:0
Bit depth                                : 8 bits
Scan type                                : Progressive
Bits/(Pixel*Frame)                       : 0.091
Stream size                              : 978 MiB (95%)


Audio
ID                                       : 2
Format                                   : AAC
Format/Info                              : Advanced Audio Codec
Format profile                           : LC
Codec ID                                 : mp4a-40-2
Duration                                 : 1 h 32 min
Bit rate mode                            : Constant
Bit rate                                 : 64.4 kb/s
Channel(s)                               : 2 channels
Channel(s)_Original                      : 6 channels
Channel positions                        : Front: L C R, Side: L R, LFE
Sampling rate                            : 48.0 kHz
Frame rate                               : 46.875 FPS (1024 SPF)
Compression mode                         : Lossy
Stream size                              : 42.4 MiB (4%)
Language                                 : English
Default                                  : Yes
Alternate group                          : 1


 :ss: :ss:





 :sample:


 :download: :download:








Share this topic on FacebookShare this topic on GoogleShare this topic on MySpaceShare this topic on TwitterShare this topic on Yahoo

« Last Edit: January 11, 2018, 09:12:51 PM by UnikAaYush »



Tags: new 
 

Related Topics

  Subject / Started by Replies Last post
0 Replies
391 Views
Last post November 02, 2017, 10:57:35 AM
by Krishnakolhe11111
0 Replies
392 Views
Last post November 03, 2017, 03:40:53 PM
by jamez.bond.3304
0 Replies
196 Views
Last post January 09, 2018, 01:35:11 PM
by PSYCHO
0 Replies
119 Views
Last post January 09, 2018, 07:39:52 PM
by ♥♫ ŘÃŇĎỖϻ ŘĮĎỖЎ ♥♫
0 Replies
188 Views
Last post January 17, 2018, 09:26:52 PM
by DjiSamSoe




Back to top