+ ShareSpark.net »  :::: Bollywood Zone » Pakistani / Urdu Movies
|- Janaan (2017) Urdu 1080p HD WEBDL DD 5.1 Audio Team Jio Exclusive


Janaan (2017) Urdu 1080p HD WEBDL DD 5.1 Audio Team Jio Exclusive

0 Members and 1 Guest are viewing this topic.

January 12, 2018, 05:33:00 PM
  • Global Moderator
  • Legend Member
  • *****
  • Topic Author
  • Thank You: 4674
  • Reputation: 925
  • Activity:
    100%
  • Country: in
  • Posts: 3656
  • Topics: 3072
  • Join Date: Jan 2014
  • ıllıllı ѕмoĸιng ιѕ good ғor нealтн ıllıllı :)
Janaan (2017) Urdu 1080p HD WEBDL DD 5.1 Audio Team Jio Exclusive



:info:

Quote
Format : Matroska
Format version : Version 4 / Version 2
File size : 7.57 GiB
Duration : 2 h 12 min
Overall bit rate : 8 204 kb/s
Encoded date : UTC 2018-01-10 17:17:30
Writing application : mkvmerge v19.0.0 ('Brave Captain') 64-bit
Writing library : libebml v1.3.5 + libmatroska v1.4.8
Video
ID : 2
Format : AVC
Format/Info : Advanced Video Codec
Format profile : [email protected]
Format settings : CABAC / 2 Ref Frames
Format settings, CABAC : Yes
Format settings, ReFrames : 2 frames
Format settings, GOP : M=1, N=12
Codec ID : V_MPEG4/ISO/AVC
Duration : 2 h 12 min
Bit rate : 8 011 kb/s
Width : 1 920 pixels
Height : 1 080 pixels
Display aspect ratio : 16:9
Frame rate mode : Constant
Frame rate : 24.000 FPS
Color space : YUV
Chroma subsampling : 4:2:0
Bit depth : 8 bits
Scan type : Progressive
Bits/(Pixel*Frame) : 0.161
Stream size : 7.39 GiB (98%)
Default : Yes
Forced : No
Audio
ID : 1
Format : E-AC-3
Format/Info : Enhanced Audio Coding 3
Codec ID : A_EAC3
Duration : 2 h 12 min
Bit rate mode : Constant
Bit rate : 192 kb/s
Channel(s) : 6 channels
Channel positions : Front: L C R, Side: L R, LFE
Sampling rate : 48.0 kHz
Frame rate : 187.500 FPS (256 SPF)
Compression mode : Lossy
Delay relative to video : -42 ms
Stream size : 181 MiB (2%)
Service kind : Complete Main
Default : Yes
Forced : No

:ss:











:download:

Quote




File Leeched & Uploaded From




Don't walk as you are king, walk as you don't care who the king is....!!
Never argue with an idiot. They drag you down to their level and then beat you with experience?

Share this topic on FacebookShare this topic on GoogleShare this topic on MySpaceShare this topic on TwitterShare this topic on Yahoo




Don't walk as you are king, walk as you don't care who the king is....!!

Thanks given by:


January 13, 2018, 05:17:26 PM
Reply #1
  • Begginer
  • **
  • Thank You: 0
  • Reputation: 3
  • Activity:
    12%
  • Country: au
  • Posts: 55
  • Topics: 0
  • Join Date: Oct 2017
  • ShareSpark Member

Tags:
 

Related Topics





Back to top